Enable / Włącz Javascript
 Widok 
 Kategorie 
 Nitro Torrent w sieci 
 Top 10 użytkowników 
 A.X.L (2018) [HD-TS.x264] [ENG] [R@KU]

A.X.L (2018) [HD-TS.x264] [ENG] [R@KU] Dla dastarter.com
Kategoria: » » »
Dodane: 07/09/2018
Rozmiar: 916.71 MB
Uploader: R@KU (7)
seed(ów): 7
leecher(ów): 7
Pobrane: 153
Komentarzy: 0
Pobierz Torrent Pobierz Torrent
Pobierz [Magnet] Pobierz [Magnet]

Obserwuj
Raportuj
Info

reżyseria: Oliver Daly
scenariusz: Oliver Daly
gatunek: Sci-Fi
produkcja: USA
premiera: 16 sierpnia 2018 (świat)

Opis
Młody bohater, Miles (Alex Neustaedter), przypadkowo znajduje na złomowisku zaawansowanego robota wojskowego o postaci psa. Ten zrobotyzowany pies o imieniu A-X-L, obdarzony jest sztuczną inteligencją najnowszej generacji. Między chłopcem a robotem szybko tworzy się emocjonalna więź.  Naukowcy wojskowi, którzy stworzyli robota, śledzą jego aktywność i chcą go za wszelką cenę odzyskać. Miles postanawia chronić swojego nowego przyjaciela?

Obsada

Lucy Hale
Becky G.
Chloe Bridges
Alex Neustaedter

Dane Techniczne

General
Complete name               : D:torentyA.X.L [raku]A.X.L HD-TS.mkv.mp4
Format                      : MPEG-4
Format profile              : Base Media
Codec ID                    : isom (isom/iso2/avc1/mp41)
File size                   : 917 MiB
Duration                    : 1 h 30 min
Overall bit rate            : 1 409 kb/s
Writing application         : Lavf57.83.100

Video
ID                          : 1
Format                      : AVC
Format/Info                 : Advanced Video Codec
Format profile              : High@L3.1
Format settings             : CABAC / 5 Ref Frames
Format settings, CABAC      : Yes
Format settings, ReFrames   : 5 frames
Codec ID                    : avc1
Codec ID/Info               : Advanced Video Coding
Duration                    : 1 h 30 min
Bit rate                    : 1 280 kb/s
Width                       : 1 904 pixels
Height                      : 784 pixels
Display aspect ratio        : 2.40:1
Frame rate mode             : Constant
Frame rate                  : 30.000 FPS
Color space                 : YUV
Chroma subsampling          : 4:2:0
Bit depth                   : 8 bits
Scan type                   : Progressive
Bits/(Pixel*Frame)          : 0.029
Stream size                 : 835 MiB (91%)
Writing library             : x264 core 148 r2643 5c65704
Encoding settings           : cabac=1 / ref=5 / deblock=1:0:0 / analyse=0x3:0x113 / me=hex / subme=7 / psy=1 / psy_rd=1.00:0.00 / mixed_ref=1 / me_range=16 / chroma_me=1 / trellis=1 / 8x8dct=1 / cqm=0 / deadzone=21,11 / fast_pskip=1 / chroma_qp_offset=-2 / threads=8 / lookahead_threads=8 / sliced_threads=1 / slices=8 / nr=0 / decimate=1 / interlaced=0 / bluray_compat=0 / constrained_intra=0 / bframes=0 / weightp=2 / keyint=250 / keyint_min=25 / scenecut=40 / intra_refresh=0 / rc=abr / mbtree=0 / bitrate=1280 / ratetol=1.0 / qcomp=0.60 / qpmin=0 / qpmax=69 / qpstep=4 / ip_ratio=1.40 / aq=1:1.00
Codec configuration box     : avcC

Audio
ID                          : 2
Format                      : AAC LC
Format/Info                 : Advanced Audio Codec Low Complexity
Codec ID                    : mp4a-40-2
Duration                    : 1 h 30 min
Bit rate mode               : Constant
Bit rate                    : 118 kb/s
Channel(s)                  : 2 channels
Channel layout              : L R
Sampling rate               : 48.0 kHz
Frame rate                  : 46.875 FPS (1024 SPF)
Compression mode            : Lossy
Stream size                 : 76.6 MiB (8%)
Language                    : English
Default                     : Yes
Alternate group             : 1


Dostępne napisy
Brak napisów
Szczegóły torrenta
Tracker http://tracker.vanitycore.co:6969/announce
Multitracker [ Pokaż ]
Kategoria: » » » [Zgłoś błąd]
Dodane 07-09-2018
Podziękowali:
0 użytkowników 
Podziękuj!
Pokaż / Ukryj pliki:
Nazwa pliku Rozmiar
Downloaded from dastarter.com.txt 0.00 KB
A.X.L HD-TS.mkv.mp4 916.71 MB
2 plików
Brak komentarzy...