Enable / Włącz Javascript
 Widok 
 Kategorie 
 Nitro Torrent w sieci 
 Top 10 użytkowników 
 Geostorm *2017* [HDCam Eng X264 AAC - FTBro] [ENG]

Geostorm *2017* [HDCam Eng X264 AAC - FTBro] [ENG]
Kategoria: » » »
Dodane: 26/10/2017
Rozmiar: 638.24 MB
Uploader: zibi6248 (2)
seed(ów): 54
leecher(ów): 14
Pobrane: 126
Komentarzy: 0
Pobierz Torrent Pobierz Torrent
Pobierz [Magnet] Pobierz [Magnet]

Obserwuj
Raportuj
...( Info )...

Produkcja: USA
Gatunek: Katastroficzny
Premiera: 20 października 2017 (Polska), 12 października 2017 (świat)
Reżyseria: Dean Devlin
Scenariusz: Dean Devlin, Paul Guyot
http://www.youtube.com/watch?v=FStnSqKi9KI

...( Opis )...

Kiedy katastrofalne w skutkach zmiany klimatu zaczynają zagrażać istnieniu Ziemi, rządy wszystkich państw świata jednoczą siły i tworzą program o kryptonimie Dutch Boy Program. Obejmuje on sieć satelitów otaczających całą planetę, które uzbrojono w technologie z dziedziny geoinżynierii zaprojektowane, aby powstrzymywać powstawanie klęsk żywiołowych. Po dwóch latach niezakłóconego działania system ochronny zaczyna szwankować. Zadanie usunięcia awarii zostaje powierzone dwóm braciom, którzy od dawna nie utrzymują ze sobą kontaktu. Muszą oni zdążyć rozwiązać problem, zanim olbrzymich rozmiarów geoburza pochłonie całą planetę.

...( Obsada )...

? Gerard Butler .... Jake Lawson
? Jim Sturgess .... Max Lawson
? Abbie Cornish .... Sarah Wilson
? Alexandra Maria Lara .... Ute Fassbinder
? Daniel Wu .... Cheng Long
? Eugenio Derbez .... Al Hernandez
? Amr Waked .... Ray Dussette
? Adepero Oduye .... Eni Adisa

...( Dane Techniczne )...

Complete name : Geostorm.2017.CAM.XViD-26k.avi
Format : MKV
File size : 638 MB
Duration : 1h 41mn
Overall bit rate : 1 928 Kbps
Writing library : VirtualDub build 32839/release

Video
ID : 0
Format : MPEG-4 Visual
Format profile : Advanced Simple@L5
Format settings, BVOP : 2
Format settings, QPel : Yes
Format settings, GMC : No warppoints
Format settings, Matrix : Default (H.263)
Muxing mode : Packed bitstream
Codec ID : XVID
Codec ID/Hint : XviD
Duration : 1h 41mn
Bit rate : 1 788 Kbps
Width : 720 pixels
Height : 304 pixels
Display aspect ratio : 2.35:1
Frame rate : 29.970 fps
Color space : YUV
Chroma subsampling : 4:2:0
Bit depth : 8 bits
Scan type : Progressive
Compression mode : Lossy
Bits/(Pixel*Frame) : 0.273
Stream size : 1.27 GiB (93%)
Writing library : XviD 67

Audio
ID : 1
Format : MPEG Audio
Format version : Version 1
Format profile : Layer 3
Mode : Joint stereo
Mode extension : MS Stereo
Codec ID : 55
Codec ID/Hint : MP3
Duration : 1h 41mn
Bit rate mode : Constant
Bit rate : 128 Kbps
Channel(s) : 2 channels
Sampling rate : 48.0 KHz
Compression mode : Lossy
Delay relative to video : 4ms
Stream size : 93.3 MiB (7%)
Alignment : Split accross interleaves
Interleave, duration : 33 ms (1.00 video frame)






Dostępne napisy
Brak napisów
Szczegóły torrenta
Tracker http://bigfoot1942.sektori.org:6969/announce
Multitracker [ Pokaż ]
Kategoria: » » » [Zgłoś błąd]
Dodane 26-10-2017
Podziękowali:
0 użytkowników 
Podziękuj!
Pokaż / Ukryj pliki:
Nazwa pliku Rozmiar
Geostorm.2017.Hdcam.Eng.X264-Filmytorrents.com.mkv 638.24 MB
1 plik
Brak komentarzy...