Enable / Włącz Javascript
 Widok 
 Kategorie 
 Nitro Torrent w sieci 
 Top 10 użytkowników 
 Maximum Ride *2016* [1080p.WEB-DL.DD5.1.H264-FGT] [ENG]

Maximum Ride *2016* [1080p.WEB-DL.DD5.1.H264-FGT] [ENG]
Kategoria: » » »
Dodane: 03/10/2017
Rozmiar: 3.43 GB
Uploader: tomysparow559 (10)
seed(ów): 0
leecher(ów): 0
Pobrane: -
Komentarzy: 0
Pobierz Torrent Pobierz Torrent
Pobierz [Magnet] Pobierz [Magnet]

Obserwuj
Raportuj
Tytuł............................................: Maximum Ride
Ocena.............................................: IMDB - 7.8/10 (166)
Produkcja.........................................: USA
Gatunek...........................................: Akcja, Przygodowy
Czas trwania......................................: 88 min.
Premiera..........................................: 30.08.2016 - Świat
Reżyseria........................................: Jay Martin
Scenariusz........................................: James Patterson, Angelique Hanus



Sześcioro dzieciaków-hybryd ucieka z laboratorium, by żyć spokojnie pośród gór. Jednak, gdy inne hybrydy namierzają ich i porywają Angel, wyswobodzenie dziewczynki staje się dla reszty priorytetem, a wyprawa po nią -okazją do poznania tajemnic swej przeszłości.



Allie Marie Evans,
Patrick Johnson,
Peter O'Brien,
Lyliana Wray



Video
ID : 1
Format : AVC
Format/Info : Advanced Video Codec
Format profile : High@L4
Format settings, CABAC : Yes
Format settings, ReFrames : 4 frames
Codec ID : V_MPEG4/ISO/AVC
Duration : 1h 28mn
Bit rate : 5 071 Kbps
Width : 1 916 pixels
Height : 1 076 pixels
Display aspect ratio : 16:9
Frame rate mode : Constant
Frame rate : 23.976 fps
Color space : YUV
Chroma subsampling : 4:2:0
Bit depth : 8 bits
Scan type : Progressive
Bits/(Pixel*Frame) : 0.103
Stream size : 3.13 GiB (91%)
Title : Maximum.Ride.2016.1080p.WEB-DL.DD5.1.H264-FGT
Language : English
Default : Yes
Forced : No
Color range : Limited
Color primaries : BT.709
Transfer characteristics : BT.709
Matrix coefficients : BT.709

Audio
ID : 2
Format : AC-3
Format/Info : Audio Coding 3
Mode extension : CM (complete main)
Format settings, Endianness : Big
Codec ID : A_AC3
Duration : 1h 28mn
Bit rate mode : Constant
Bit rate : 384 Kbps
Channel(s) : 6 channels
Channel positions : Front: L C R, Side: L R, LFE
Sampling rate : 48.0 KHz
Frame rate : 31.250 fps (1536 spf)
Compression mode : Lossy
Stream size : 242 MiB (7%)
Title : Maximum.Ride.2016.1080p.WEB-DL.DD5.1.H264-FGT
Language : English
Default : Yes
Forced : No

Text
ID : 3
Format : UTF-8
Codec ID : S_TEXT/UTF8
Codec ID/Info : UTF-8 Plain Text
Language : English
Default : Yes
Forced : No

Menu
00:00:00.000 : en:Chapter 1
00:08:04.000 : en:Chapter 2
00:13:29.000 : en:Chapter 3
00:24:55.000 : en:Chapter 4
00:31:36.000 : en:Chapter 5
00:40:11.000 : en:Chapter 6
00:47:51.000 : en:Chapter 7
00:56:47.000 : en:Chapter 8
01:01:37.000 : en:Chapter 9
01:11:46.000 : en:Chapter 10
01:18:16.000 : en:Chapter 11
01:21:40.000 : en:Chapter 12

Torrent downloaded from http://rarbg.to
Dostępne napisy
Brak napisów
Szczegóły torrenta
Tracker http://tracker.trackerfix.com:80/announce
Multitracker [ Pokaż ]
Kategoria: » » » [Zgłoś błąd]
Dodane 03-10-2017
Podziękowali:
0 użytkowników 
Podziękuj!
Pokaż / Ukryj pliki:
Nazwa pliku Rozmiar
English.srt 56.33 KB
Maximum.Ride.2016.1080p.WEB-DL.DD5.1.H264-FGT.mkv 3.43 GB
Maximum.Ride.2016.1080p.WEB-DL.DD5.1.H264-FGT.nfo 4.45 KB
RARBG.com.txt 0.03 KB
4 plików
Brak komentarzy...