Enable / Włącz Javascript
 Widok 
 Kategorie 
 Nitro Torrent w sieci 
 Top 10 użytkowników 
 Maximum Ride *2016* [WEB-DL.x264-FGT] [ENG]

Maximum Ride *2016* [WEB-DL.x264-FGT] [ENG]
Kategoria: » » »
Dodane: 03/10/2017
Rozmiar: 760.11 MB
Uploader: dastarter.com❱ Wędrowiec
seed(ów): 0
leecher(ów): 0
Pobrane: -
Komentarzy: 0
Pobierz Torrent Pobierz Torrent
Pobierz [Magnet] Pobierz [Magnet]

Obserwuj
Raportuj
Tytuł: Maximum Ride
Ocena: IMDB - 7.8/10 (166)
Produkcja: USA
Gatunek: Akcja, Przygodowy
Czas trwania: 88 min.
Premiera: 30.08.2016 - Świat
Reżyseria: Jay Martin
Scenariusz: James Patterson, Angelique Hanus

Aktorzy:
Allie Marie Evans,
Patrick Johnson,
Peter O'Brien,
Lyliana Wray

OPIS:
Sześcioro dzieciaków-hybryd ucieka z laboratorium, by żyć spokojnie pośród gór. Jednak, gdy inne hybrydy namierzają ich i porywają Angel, wyswobodzenie dziewczynki staje się dla reszty priorytetem, a wyprawa po nią -okazją do poznania tajemnic swej przeszłości. (release24.pl)

Video
ID                                       : 1
Format                                   : AVC
Format/Info                              : Advanced Video Codec
Format profile                           : High@L3.1
Format settings, CABAC                   : Yes
Format settings, ReFrames                : 5 frames
Codec ID                                 : avc1
Codec ID/Info                            : Advanced Video Coding
Duration                                 : 1h 28mn
Bit rate                                 : 1 100 Kbps
Width                                    : 720 pixels
Height                                   : 400 pixels
Display aspect ratio                     : 16:9
Original display aspect ratio            : 16:9
Frame rate mode                          : Constant
Frame rate                               : 23.976 (23976/1000) fps
Color space                              : YUV
Chroma subsampling                       : 4:2:0
Bit depth                                : 8 bits
Scan type                                : Progressive
Bits/(Pixel*Frame)                       : 0.159
Stream size                              : 676 MiB (89%)
Language                                 : English

Audio
ID                                       : 2
Format                                   : AAC
Format/Info                              : Advanced Audio Codec
Format profile                           : LC
Codec ID                                 : 40
Duration                                 : 1h 28mn
Duration_LastFrame                       : 32ms
Bit rate mode                            : Variable
Bit rate                                 : 128 Kbps
Maximum bit rate                         : 31.3 Mbps
Channel(s)                               : 2 channels
Channel positions                        : Front: L R
Sampling rate                            : 48.0 KHz
Frame rate                               : 46.875 fps (1024 spf)
Compression mode                         : Lossy
Stream size                              : 80.8 MiB (11%)
Title                                    : Maximum.Ride.2016.WEB-DL.x264-FGT
Language                                 : English
Default                                  : Yes
Alternate group                          : 1

Torrent downloaded from http://rarbg.to
Dostępne napisy
Brak napisów
Szczegóły torrenta
Tracker http://tracker.trackerfix.com:80/announce
Multitracker [ Pokaż ]
Kategoria: » » » [Zgłoś błąd]
Dodane 03-10-2017
Podziękowali:
0 użytkowników 
Podziękuj!
Pokaż / Ukryj pliki:
Nazwa pliku Rozmiar
English.srt 56.33 KB
Maximum.Ride.2016.WEB-DL.x264-FGT.mp4 760.05 MB
Maximum.Ride.2016.WEB-DL.x264-FGT.nfo 4.04 KB
RARBG.com.txt 0.03 KB
4 plików
Brak komentarzy...