Enable / Włącz Javascript
 Widok 
 Kategorie 
 Nitro Torrent w sieci 
 Top 10 użytkowników 
 Mroczna wieża - The Dark Tower *2017* [1080p.BluRay.x264.DTS-SHITBOX] [ENG]

Mroczna wieża - The Dark Tower *2017* [1080p.BluRay.x264.DTS-SHITBOX] [ENG]
Kategoria: » » »
Dodane: 08/10/2017
Rozmiar: 4.51 GB
Uploader: feldfebel1 (13)
seed(ów): 8048
leecher(ów): 3437
Pobrane: 80
Komentarzy: 0
Pobierz Torrent Pobierz Torrent
Pobierz [Magnet] Pobierz [Magnet]

Obserwuj
Raportuj
Info

Produkcja: USA
Gatunek: Fantasy, Horror
Premiera: 11 sierpnia 2017 (Polska), 27 lipca 2017 (świat)
Reżyseria: Nikolaj Arcel
Scenariusz: Nikolaj Arcel, Akiva Goldsman, Anders Thomas Jensen, Jeff Pinkner


Opis

Ostatni Rycerz, Roland Deschain (Idris Elba), uwięziony w niekończącej się walce z Walterem O?Dimem, znanym także jako Człowiek w czerni (Matthew McConaughey), ze wszystkich sił stara się powstrzymać go przed zburzeniem Mrocznej Wieży, która spaja światy. W imię przetrwania światów, w ostatecznej walce zderzą się ze sobą dobro i zło. Tylko Roland może ocalić Wieżę przed Człowiekiem w czerni.


Obsada

? Matthew McConaughey .... Walter
? Idris Elba .... Roland
? Tom Taylor .... Jake
? Dennis Haysbert .... Steven
? Ben Gavin .... Żołnierz
? Claudia Kim .... Arra
? Jackie Earle Haley .... Sayre
? Fran Kranz .... Pimli


Dane Techniczne

Video
ID : 1
Format : AVC
Format/Info : Advanced Video Codec
Format profile : High@L4.1
Format settings, CABAC : Yes
Format settings, ReFrames : 4 frames
Codec ID : V_MPEG4/ISO/AVC
Duration : 1 h 34 min
Bit rate : 5 400 kb/s
Width : 1 920 pixels
Height : 800 pixels
Display aspect ratio : 2.40:1
Frame rate mode : Constant
Frame rate : 23.976 (24000/1001) FPS
Color space : YUV
Chroma subsampling : 4:2:0
Bit depth : 8 bits
Scan type : Progressive
Bits/(Pixel*Frame) : 0.147
Stream size : 3.42 GiB (76%)
Title : The.Dark.Tower.2017.1080p.BluRay.x264.DTS-SHITBOX
Writing library : x264 core 142 r2479 dd79a61
Encoding settings : cabac=1 / ref=1 / deblock=1:0:0 / analyse=0x3:0x113 / me=hex / subme=2 / psy=1 / psy_rd=1.00:0.00 / mixed_ref=0 / me_range=16 / chroma_me=1 / trellis=0 / 8x8dct=1 / cqm=0 / deadzone=21,11 / fast_pskip=1 / chroma_qp_offset=0 / threads=12 / lookahead_threads=4 / sliced_threads=0 / nr=0 / decimate=1 / interlaced=0 / bluray_compat=0 / constrained_intra=0 / bframes=3 / b_pyramid=2 / b_adapt=1 / b_bias=0 / direct=1 / weightb=1 / open_gop=0 / weightp=1 / keyint=240 / keyint_min=24 / scenecut=40 / intra_refresh=0 / rc_lookahead=10 / rc=abr / mbtree=1 / bitrate=5400 / ratetol=1.0 / qcomp=0.60 / qpmin=0 / qpmax=69 / qpstep=4 / vbv_maxrate=62500 / vbv_bufsize=78125 / nal_hrd=none / filler=0 / ip_ratio=1.40 / aq=1:1.00
Language : English
Default : Yes
Forced : No
Color range : Limited
Color primaries : BT.709
Transfer characteristics : BT.709
Matrix coefficients : BT.709

Audio
ID : 2
Format : DTS
Format/Info : Digital Theater Systems
Mode : 16
Format settings, Endianness : Big
Codec ID : A_DTS
Duration : 1 h 34 min
Bit rate mode : Constant
Bit rate : 1 509 kb/s
Channel(s) : 6 channels
Channel positions : Front: L C R, Side: L R, LFE
Sampling rate : 48.0 kHz
Frame rate : 93.750 FPS (512 spf)
Bit depth : 16 bits
Compression mode : Lossy
Delay relative to video : -83 ms
Stream size : 1 023 MiB (22%)
Title : The.Dark.Tower.2017.1080p.BluRay.x264.DTS-SHITBOX
Language : English
Default : Yes
Forced : No

Text
ID : 3
Format : UTF-8
Codec ID : S_TEXT/UTF8
Codec ID/Info : UTF-8 Plain Text
Language : English
Default : Yes
Forced : No


Screenshot / Wideo

Dostępne napisy
Brak napisów
Szczegóły torrenta
Tracker http://tracker.trackerfix.com:80/announce
Multitracker [ Pokaż ]
Kategoria: » » » [Zgłoś błąd]
Dodane 08-10-2017
Podziękowali:
0 użytkowników 
Podziękuj!
Pokaż / Ukryj pliki:
Nazwa pliku Rozmiar
English.srt 60.28 KB
RARBG.txt 0.03 KB
The.Dark.Tower.2017.1080p.BluRay.x264.DTS-SHITBOX.mkv 4.51 GB
3 plików
Brak komentarzy...