Enable / Włącz Javascript
 Widok 
 Kategorie 
 Nitro Torrent w sieci 
 Top 10 użytkowników 
 Sharktopus vs.Whalewolf *2015* [HDRip.x264-MenaceIISociety] [ENG]

Sharktopus vs.Whalewolf *2015* [HDRip.x264-MenaceIISociety] [ENG]
Kategoria: » » »
Dodane: 03/10/2017
Rozmiar: 985.42 MB
Uploader: dastarter.com❱ Wędrowiec
seed(ów): 0
leecher(ów): 0
Pobrane: 2
Komentarzy: 0
Pobierz Torrent Pobierz Torrent
Pobierz [Magnet] Pobierz [Magnet]

Obserwuj
Raportuj
Tytuł: Sharktopus vs. Whalewolf
Ocena: IMDB - 4.3/10 (133), Filmweb - 1.2/10 (4)
Produkcja: USA
Gatunek: Przygodowy, Sci-Fi
Czas trwania: 83 min.
Premiera: 19.07.2015 - Świat
Reżyseria: Kevin O'Neill
Scenariusz: -

Aktorzy:
Casper Van Dien,
Catherine Oxenberg,
Akari Endo,
Sarodj Bertin

OPIS:
W oceanie pojawia się nowy zabójca. Szalony naukowiec krzyżuje geny orki oraz wilka, tworząc prawdziwą maszynę do zabijania. Jednak dzielny Sharktopus nie jest jakimś ludkiem wydartym z krepiny, a jego mieszacz genów nie wypadł sroce spod ogona, tylko był równie porządnie szurniętym profesorem. Zapowiada się ekscytujące starcie i sporo chlapania. (release24.pl)

General
Complete name: Sharktopus.vs.Whalewolf.2015.HDRip.x264-MenaceIISociety.mp4
Format: MPEG-4
Format profile: Base Media
Codec ID: isom
File size: 968 MiB
Duration: 1h 23mn
Overall bit rate mode: Variable
Overall bit rate: 1 630 Kbps
Encoded date: UTC 2015-08-11 13:30:58
Tagged date: UTC 2015-08-11 13:30:58

Video
ID: 1
Format: AVC
Format/Info: Advanced Video Codec
Format profile: High@L4.1
Format settings, CABAC: Yes
Format settings, ReFrames: 3 frames
Codec ID: avc1
Codec ID/Info: Advanced Video Coding
Duration: 1h 23mn
Bit rate mode: Variable
Bit rate: 1 271 Kbps
Maximum bit rate: 40.0 Mbps
Width: 720 pixels
Height: 400 pixels
Display aspect ratio: 16:9
Frame rate mode: Constant
Frame rate: 29.970 fps
Color space: YUV
Chroma subsampling: 4:2:0
Bit depth: 8 bits
Scan type: Progressive
Bits/(Pixel*Frame): 0.147
Stream size: 755 MiB (78%)
Writing library: x264 core 148 r2579 73ae2d1

Audio
ID: 2
Format: AAC
Format/Info: Advanced Audio Codec
Format profile: LC
Codec ID: 40
Duration: 1h 23mn
Bit rate mode: Variable
Bit rate: 353 Kbps
Maximum bit rate: 388 Kbps
Channel(s): 6 channels
Channel positions: Front: L C R, Side: L R, LFE
Sampling rate: 48.0 KHz
Compression mode: Lossy
Stream size: 211 MiB (22%)
Encoded date: UTC 2015-08-11 12:46:05
Tagged date: UTC 2015-08-11 13:34:40

Dostępne napisy
Brak napisów
Szczegóły torrenta
Tracker udp://open.demonii.com:1337/announce
Multitracker [ Pokaż ]
Kategoria: » » » [Zgłoś błąd]
Dodane 03-10-2017
Podziękowali:
0 użytkowników 
Podziękuj!
Pokaż / Ukryj pliki:
Nazwa pliku Rozmiar
Sample.mp4 17.04 MB
Sharktopus.vs.Whalewolf.2015.HDRip.x264-MenaceIISociety.mp4 968.38 MB
Sharktopus.vs.Whalewolf.2015.HDRip.x264-MenaceIISociety.nfo 3.35 KB
Torrent Downloaded From ExtraTorrent.cc.txt 0.33 KB
4 plików
Brak komentarzy...