Enable / Włącz Javascript
 Widok 
 Kategorie 
 Nitro Torrent w sieci 
 Top 10 użytkowników 
 THE PREDATOR 2018 [NEW HDTS.X264.] [ENG] [R@KU]

THE PREDATOR 2018 [NEW HDTS.X264.] [ENG] [R@KU] Dla dastarter.com
Kategoria: » » »
Dodane: 07/10/2018
Rozmiar: 934.78 MB
Uploader: R@KU (7)
seed(ów): 12
leecher(ów): 7
Pobrane: 339
Komentarzy: 0
Pobierz Torrent Pobierz Torrent
Pobierz [Magnet] Pobierz [Magnet]

Obserwuj
Raportuj
Info
Tytuł: The Predator
Tytuł roboczy: Predator 4
Premiera: 14 września 2018 (Polska); 7 września 2018 (Toronto International Film Festival)
Reżyseria: Shane Black
Scenariusz: Fred Dekker; Shane Black
Opis
Akcja filmu rozgrywa się 30 lat po wydarzeniach z pierwszego ?Predatora?. Polowanie z zewnętrznych rubieży kosmosu przeniesie się na ulice małych miasteczek na przedmieściach ziemskiej metropolii. Najbardziej śmiercionośni Łowcy wszechświata teraz są jeszcze silniejsi, mądrzejsi i groźniejsi. Nową siłę zawdzięczają genetycznym modyfikacjom swojego DNA z kodem genetycznym innych gatunków. Gdy młody i nieświadomy zagrożenia chłopiec przypadkowo ściąga ich na Ziemię, tylko grupa byłych żołnierzy i nauczyciel nauk ścisłych mogą zapobiec końcowi ludzkości.
Obsada
Dean Redman
Olivia Munn
Thomas Jane
Dane Techniczne
General
Complete name : D: orentypredator [R@KU]The Predator 2018 NEW 720p HDTS.mkv.mp4
Format : MPEG-4
Format profile : Base Media
Codec ID : isom (isom/iso2/avc1/mp41)
File size : 935 MiB
Duration : 1 h 41 min
Overall bit rate : 1 288 kb/s
Writing application : Lavf57.83.100

Video
ID : 1
Format : AVC
Format/INFO : Advanced Video Codec
Format profile : High@L3.1
Format settings : CABAC / 5 Ref Frames
Format settings, CABAC : Yes
Format settings, ReFrames : 5 frames
Codec ID : avc1
Codec ID/INFO : Advanced Video Coding
Duration : 1 h 41 min
Bit rate : 1 152 kb/s
Width : 1 280 pixels
Height : 528 pixels
Display aspect ratio : 2.40:1
Frame rate mode : Constant
Frame rate : 30.000 FPS
Color space : YUV
Chroma subsampling : 4:2:0
Bit depth : 8 bits
Scan type : Progressive
Bits/(Pixel*Frame) : 0.057
Stream size : 837 MiB (90%)
Writing library : x264 core 148 r2643 5c65704
Encoding settings : cabac=1 / ref=5 / deblock=1:0:0 / analyse=0x3:0x113 / me=hex / subme=7 / psy=1 / psy_rd=1.00:0.00 / mixed_ref=1 / me_range=16 / chroma_me=1 / trellis=1 / 8x8dct=1 / cqm=0 / deadzone=21,11 / fast_pskip=1 / chroma_qp_offset=-2 / threads=8 / lookahead_threads=8 / sliced_threads=1 / slices=8 / nr=0 / decimate=1 / interlaced=0 / bluray_compat=0 / constrained_intra=0 / bframes=0 / weightp=2 / keyint=250 / keyint_min=25 / scenecut=40 / intra_refresh=0 / rc=abr / mbtree=0 / bitrate=1152 / ratetol=1.0 / qcomp=0.60 / qpmin=0 / qpmax=69 / qpstep=4 / ip_ratio=1.40 / aq=1:1.00
Codec configuration box : avcC

Audio
ID : 2
Format : AAC LC
Format/INFO : Advanced Audio Codec Low Complexity
Codec ID : mp4a-40-2
Duration : 1 h 41 min
Duration_LastFrame : -11 ms
Bit rate mode : Constant
Bit rate : 128 kb/s
Channel(s) : 2 channels
Channel layout : L R
Sampling rate : 48.0 kHz
Frame rate : 46.875 FPS (1024 SPF)
Compression mode : Lossy
Stream size : 93.1 MiB (10%)
Default : Yes
Alternate group : 1

POBRALES SEDUJ NIEBADZ PIJAWKOM
Dostępne napisy
Brak napisów
Szczegóły torrenta
Tracker http://tracker.vanitycore.co:6969/announce
Multitracker [ Pokaż ]
Kategoria: » » » [Zgłoś błąd]
Dodane 07-10-2018
Podziękowali:
1 użytkownik 
[ Pokaż ]
Podziękuj!
Pokaż / Ukryj pliki:
Nazwa pliku Rozmiar
Downloaded from dastarter.com.txt 0.00 KB
The Predator 2018 NEW 720p HDTS.mkv.mp4 934.78 MB
2 plików
Brak komentarzy...