Enable / Włącz Javascript
 Widok 
 Kategorie 
 Nitro Torrent w sieci 
 Top 10 użytkowników 
 VENOM *2018* [TS-CAM-1XBET X264] [ENG] [R@KU]

VENOM *2018* [TS-CAM-1XBET X264] [ENG] [R@KU] Dla dastarter.com
Kategoria: » » »
Dodane: 08/10/2018
Rozmiar: 841.34 MB
Uploader: R@KU (7)
seed(ów): 9
leecher(ów): 3
Pobrane: 286
Komentarzy: 0
Pobierz Torrent Pobierz Torrent
Pobierz [Magnet] Pobierz [Magnet]

Obserwuj
Raportuj
Info
reżyseria: Ruben Fleischer
scenariusz: Scott RosenbergJeff Pinkner(więcej...)
gatunek: AkcjaSci-Fi
produkcja: USA
premiera: 5 października 2018 (Polska) 3 października 2018 (świat)
boxoffice: $205 230 000
Opis
Kiedy Eddie Brock zdobywa moce symbionta, zmuszony jest uwolnić swoje alter-ego "Venoma", by ratować własne życie.
Obsada
Tom Hardy
Michelle Williams
Riz Ahmed
Dane Techniczne
General
Complete name : D: orentyvenom [R@KU]Venom.2018.TS-1XBET.mp4
Format : MPEG-4
Format profile : Base Media
Codec ID : isom (isom/iso2/avc1/mp41)
File size : 841 MiB
Duration : 1 h 31 min
Overall bit rate : 1 292 kb/s
Writing application : Lavf57.83.100

Video
ID : 1
Format : AVC
Format/INFO : Advanced Video Codec
Format profile : High@L3.1
Format settings : CABAC / 5 Ref Frames
Format settings, CABAC : Yes
Format settings, ReFrames : 5 frames
Codec ID : avc1
Codec ID/INFO : Advanced Video Coding
Duration : 1 h 31 min
Bit rate : 1 152 kb/s
Width : 1 280 pixels
Height : 536 pixels
Display aspect ratio : 2.40:1
Frame rate mode : Constant
Frame rate : 29.970 (30000/1001) FPS
Color space : YUV
Chroma subsampling : 4:2:0
Bit depth : 8 bits
Scan type : Progressive
Bits/(Pixel*Frame) : 0.056
Stream size : 753 MiB (90%)
Writing library : x264 core 148 r2795 aaa9aa8
Encoding settings : cabac=1 / ref=5 / deblock=1:0:0 / analyse=0x3:0x113 / me=hex / subme=7 / psy=1 / psy_rd=1.00:0.00 / mixed_ref=1 / me_range=16 / chroma_me=1 / trellis=1 / 8x8dct=1 / cqm=0 / deadzone=21,11 / fast_pskip=1 / chroma_qp_offset=-2 / threads=8 / lookahead_threads=8 / sliced_threads=1 / slices=8 / nr=0 / decimate=1 / interlaced=0 / bluray_compat=0 / constrained_intra=0 / bframes=0 / weightp=2 / keyint=250 / keyint_min=25 / scenecut=40 / intra_refresh=0 / rc=abr / mbtree=0 / bitrate=1152 / ratetol=1.0 / qcomp=0.60 / qpmin=0 / qpmax=69 / qpstep=4 / ip_ratio=1.40 / aq=1:1.00
Codec configuration box : avcC

Audio
ID : 2
Format : AAC LC
Format/INFO : Advanced Audio Codec Low Complexity
Codec ID : mp4a-40-2
Duration : 1 h 31 min
Duration_LastFrame : -11 ms
Bit rate mode : Constant
Bit rate : 128 kb/s
Channel(s) : 2 channels
Channel layout : L R
Sampling rate : 48.0 kHz
Frame rate : 46.875 FPS (1024 SPF)
Compression mode : Lossy
Stream size : 83.4 MiB (10%)
Default : Yes
Alternate group : 1
Screenshot / Wideo
http://scr.hu/yjRqY6l

Dostępne napisy
Brak napisów
Szczegóły torrenta
Tracker http://tracker.vanitycore.co:6969/announce
Multitracker [ Pokaż ]
Kategoria: » » » [Zgłoś błąd]
Dodane 08-10-2018
Podziękowali:
1 użytkownik 
[ Pokaż ]
Podziękuj!
Pokaż / Ukryj pliki:
Nazwa pliku Rozmiar
Downloaded from dastarter.com.txt 0.00 KB
screnshot.jpg 175.37 KB
Venom.2018.TS-1XBET.mp4 841.17 MB
3 plików
Brak komentarzy...